USLT [Võ Thuật] The Bare Footed Kid (Chân Không Tiểu Tử) (1993) [ViE HDTV 720p x264]

hanbro

Member
Thành Viên


THE BARE FOOTED KID (1993)
CHÂN KHÔNG TIỂU TỬ


Đạo diễn: Mona Fong Yat-Wa
Diễn viên: Quách Phú Thành, Trương Mạn Ngọc, Địch Long...
Thể loại: Hành Động | Võ Thuật
Độ dài: 81 phút
Quốc gia: HongKong
Năm sản xuất: 1993
Chuyển ngữ: US Lồng Tiếng

Sau cái chết của cha mình, Quan Phong Diệu một thanh niên nghèo tìm kiếm người bạn của cha mình là Đoạn Thanh Vân và nhận được sự giúp đỡ từ Thanh Vân và bà chủ Tứ Qúy Chức. Bởi vì có võ thuật cao, Phong Diệu được Thạch Hòa Phố thuê về làm và đã bị Nguyên Thiên Hữu lừa và lợi dung để giết chết Thạch Hòa Phố và vô tình đã hại chết Đoạn Thanh Vân, trước khi chết Đoạn Thanh Vân truyền hết võ công của cha Phong Diệu lại cho anh và cuối cùng anh đã giết chết hết những người của Thạch Hòa Phố nhưng vì bị thương quá nặng nên anh đã chết và trước khi chết anh còn cố mang đôi giày mới của mình lần cuối cùng.
"Cả đời ngay cả tên mình cũng không biết viết thì còn làm được gì"

MediaInfo

Mã:
General
Complete name               : Chan.Khong.Tieu.Tu.1993.ViE.HDTV.720p.x264.mkv
Format                      : Matroska
Format version              : Version 4 / Version 2
File size                   : 1.87 GiB
Duration                    : 1h 20mn
Overall bit rate            : 3 326 Kbps

Video
ID                          : 1
Format                      : AVC
Format/Info                 : Advanced Video Codec
Format profile              : [email protected]
Codec ID                    : V_MPEG4/ISO/AVC
Duration                    : 1h 20mn
Bit rate                    : 2 812 Kbps
Width                       : 1 280 pixels
Height                      : 720 pixels
Display aspect ratio        : 16:9

Audio #1
ID                          : 2
Format                      : MPEG Audio
Codec ID                    : A_MPEG/L3
Codec ID/Hint               : MP3
Duration                    : 1h 20mn
Bit rate mode               : Constant
Bit rate                    : 128 Kbps
Channel(s)                  : 2 channels
Sampling rate               : 44.1 KHz
Compression mode            : Lossy
Stream size                 : 73.7 MiB (4%)
Language                    : Vietnamese

Audio #2
ID                          : 3
Format                      : MPEG Audio
Codec ID                    : A_MPEG/L2
Codec ID/Hint               : MP2
Duration                    : 1h 20mn
Bit rate mode               : Constant
Bit rate                    : 384 Kbps
Channel(s)                  : 2 channels
Sampling rate               : 48.0 KHz
Compression mode            : Lossy
Stream size                 : 221 MiB (12%)
Language                    : Chinese

ScreenShot

Link tải:
Bạn phải bình luận trước khi bạn có thể thấy nội dung ẩn ở đây.
 
Top